Depeche Mode Live In Different Cities Indoor 2013-2014 [DVD by blackarmy81] | dmremix.pro

Depeche Mode Live In Different Cities Indoor 2013-2014 [DVD by blackarmy81]

Format
3xDVD5

demoderus

Administrator
Staff member
Live In Different Cities Indoor 2013-2014 (by blackarmy81) [3xDVD5]
Cover int.jpg

This is the second DVD with a collection of songs during the indoor concert 2013-14
Recorded by: Blackarmy81
Mastered by: R.J.

Setlist:
DVD 1 (01:07:10)
You must be registered for see medias
01 - Intro (Live 2013-11-09 Dublin)
02 - Welcome To My World (Live 2013-11-09 Dublin)
03 - Angel (Live 2013-11-25 Berlin)
04 - Walking In My Shoes (Live 2013-12-11 Gothenburg)
05 - Precious (Live 2013-11-23 Hannover)
06 - Black Celebration (Live 2014-02-24 Lodz)
07 - In Your Room (Live 2014-02-24 Lodz)
08 - Stripped (Live 2014-01-18 Madrid)
09 - Policy Of Truth (Live 2013-11-15 Manchester)
10 - Should Be Higher (Live 2013-12-09 Malmo)
11 - Barrel Of A Gun (Live 2013-06-27 Stockholm)
12 - Higher Love (Live 2013-05-04 Nice)
13 - The Child Inside (Live 2013-11-23 Hannover)

DVD 2 (01:14:27)
You must be registered for see medias
14 - Home (Live 2013-11-13 Leeds)
15 - Judas (Live 2013-11-13 Leeds)
16 - But Not Tonight (Live 2013-12-07 Amsterdam)
17 - Slow (Live 2014-01-17 Madrid)
18 - Blue Dress (live 2014-02-08 Vienna)
19 - Heaven (Live 2014-01-17 Madrid)
20 - Soothe My Soul (Live 2013-06-27 Stockholm)
21 - Behind The Wheel (Live 2013-12-09 Malmo)
22 - A Pain That I'm Used To (Live 2014-02-22 Bologna)
23 - A Question Of Time (Live 2013-11-25 Berlin)
24 - Secret To The End (Live 2013-05-04 Nice)
25 - Enjoy The Silence (Live 2013-11-25 Berlin)
26 - Personal Jesus (Live 2013-12-07 Amsterdam)

DVD 3 (01:15:03)
You must be registered for see medias
27 - Goodbye (Live 2013-06-27 Stockholm)
28 - A Question Of Lust (Live 2013-05-04 Nice)
29 - Home (Live 2014-01-18 Madrid)
30 - Happy Birthday Peter Gordeno! (Live 2014-02-20 Milano)
31 - Shake The Disease (Live 2014-02-20 Milano)
32 - Condemnation (Live 2013-11-15 Manchester)
33 - But Not Tonight (live 2014-02-08 Vienna)
34 - Halo (Live 2013-11-15 Manchester)
35 - Just Can't Get Enough (Live 2013-12-11 Gothenburg)
36 - I Feel You (Live 2013-12-11 Gothenburg)
37 - Never Let Me Down Again (live 2014-02-08 Vienna)
38 - Judas (Live 2014-02-22 Bologna) (bonus)

All clips are from my camera Panasionic TZ-30 and external soundrecorder on most of the clips.
 
Download
DVD 1 3,7Gb (video_ts)
Video: MPEG2 Video 720x576 (16:9) 25fps [V: mpeg2 main, yuv420p, 720x576]
Audio: Dolby AC3 48000Hz stereo 192kbps [A: ac3, 48000 Hz, stereo, 192 kb/s]
General
Complete name : T:\2014 Delta Machine Tour\_LIVE IN DIFFERENT CITIES Indoor 2013-14 [by blackarmy81]\LIVE IN DIFFERENT CITIES Indoor 2013-14 (MultiCam)\Live In Different Cities Indoor 2013-2014 dvd 1\VIDEO_TS\VTS_01_0.VOB
Format : MPEG-PS
File size : 9.26 MiB
Duration : 5mn 24s
Overall bit rate mode : Variable
Overall bit rate : 239 Kbps

Video
ID : 224 (0xE0)
Format : MPEG Video
Format version : Version 2
Format profile : Main@Main
Format settings, BVOP : Yes
Format settings, Matrix : Default
Duration : 520ms
Bit rate mode : Variable
Bit rate : 42.4 Kbps
Maximum bit rate : 9 500 Kbps
Width : 720 pixels
Height : 576 pixels
Display aspect ratio : 16:9
Frame rate : 25.000 fps
Standard : PAL
Color space : YUV
Chroma subsampling : 4:2:0
Bit depth : 8 bits
Scan type : Progressive
Compression mode : Lossy
Bits/(Pixel*Frame) : 0.004
Time code of first frame : 00:00:00:00
Time code source : Group of pictures header
Stream size : 2.69 KiB (0%)

Audio
ID : 189 (0xBD)-128 (0x80)
Format : AC-3
Format/Info : Audio Coding 3
Mode extension : CM (complete main)
Format settings, Endianness : Big
Muxing mode : DVD-Video
Duration : 5mn 24s
Bit rate mode : Constant
Bit rate : 192 Kbps
Channel(s) : 2 channels
Channel positions : Front: L R
Sampling rate : 48.0 KHz
Bit depth : 16 bits
Compression mode : Lossy
Stream size : 7.44 MiB (80%)

Text #1
ID : 189 (0xBD)-32 (0x20)
Format : RLE
Format/Info : Run-length encoding
Muxing mode : DVD-Video

Text #2
ID : 189 (0xBD)-33 (0x21)
Format : RLE
Format/Info : Run-length encoding
Muxing mode : DVD-Video
Menu
DVD 2 4,1Gb (video_ts)
Video: MPEG2 Video 720x576 (16:9) 25fps [V: mpeg2 main, yuv420p, 720x576]
Audio: Dolby AC3 48000Hz stereo 192kbps [A: ac3, 48000 Hz, stereo, 192 kb/s]
General
Complete name : T:\2014 Delta Machine Tour\_LIVE IN DIFFERENT CITIES Indoor 2013-14 [by blackarmy81]\LIVE IN DIFFERENT CITIES Indoor 2013-14 (MultiCam)\Live In Different Cities Indoor 2013-2014 dvd 2\VIDEO_TS\VTS_01_1.VOB
Format : MPEG-PS
File size : 1 000 MiB
Duration : 18mn 48s
Overall bit rate mode : Variable
Overall bit rate : 7 433 Kbps
Video
ID : 224 (0xE0)
Format : MPEG Video
Format version : Version 2
Format profile : Main@Main
Format settings, BVOP : Yes
Format settings, Matrix : Default
Format settings, GOP : M=3, N=12
Duration : 18mn 48s
Bit rate mode : Variable
Bit rate : 7 093 Kbps
Maximum bit rate : 9 500 Kbps
Width : 720 pixels
Height : 576 pixels
Display aspect ratio : 16:9
Frame rate : 25.000 fps
Standard : PAL
Color space : YUV
Chroma subsampling : 4:2:0
Bit depth : 8 bits
Scan type : Progressive
Compression mode : Lossy
Bits/(Pixel*Frame) : 0.684
Time code of first frame : 00:00:00:00
Time code source : Group of pictures header
GOP, Open/Closed : Closed
Stream size : 954 MiB (95%)
Audio
ID : 189 (0xBD)-128 (0x80)
Format : AC-3
Format/Info : Audio Coding 3
Mode extension : CM (complete main)
Format settings, Endianness : Big
Muxing mode : DVD-Video
Duration : 18mn 48s
Bit rate mode : Constant
Bit rate : 192 Kbps
Channel(s) : 2 channels
Channel positions : Front: L R
Sampling rate : 48.0 KHz
Bit depth : 16 bits
Compression mode : Lossy
Stream size : 25.8 MiB (3%)
Menu
DVD 3 4,0Gb (video_ts)
Video: MPEG2 Video 720x576 (16:9) 25fps [V: mpeg2 main, yuv420p, 720x576]
Audio: Dolby AC3 48000Hz stereo 192kbps [A: ac3, 48000 Hz, stereo, 192 kb/s]
General
Complete name : T:\2014 Delta Machine Tour\_LIVE IN DIFFERENT CITIES Indoor 2013-14 [by blackarmy81]\LIVE IN DIFFERENT CITIES Indoor 2013-14 (MultiCam)\Live In Different Cities Indoor 2013-2014 dvd 3\VIDEO_TS\VTS_01_1.VOB
Format : MPEG-PS
File size : 1 000 MiB
Duration : 18mn 17s
Overall bit rate mode : Variable
Overall bit rate : 7 642 Kbps
Video
ID : 224 (0xE0)
Format : MPEG Video
Format version : Version 2
Format profile : Main@Main
Format settings, BVOP : Yes
Format settings, Matrix : Default
Format settings, GOP : M=3, N=12
Duration : 18mn 17s
Bit rate mode : Variable
Bit rate : 7 298 Kbps
Maximum bit rate : 9 500 Kbps
Width : 720 pixels
Height : 576 pixels
Display aspect ratio : 16:9
Frame rate : 25.000 fps
Standard : PAL
Color space : YUV
Chroma subsampling : 4:2:0
Bit depth : 8 bits
Scan type : Progressive
Compression mode : Lossy
Bits/(Pixel*Frame) : 0.704
Time code of first frame : 00:00:00:00
Time code source : Group of pictures header
GOP, Open/Closed : Closed
Stream size : 955 MiB (95%)
Audio
ID : 189 (0xBD)-128 (0x80)
Format : AC-3
Format/Info : Audio Coding 3
Mode extension : CM (complete main)
Format settings, Endianness : Big
Muxing mode : DVD-Video
Duration : 18mn 17s
Bit rate mode : Constant
Bit rate : 192 Kbps
Channel(s) : 2 channels
Channel positions : Front: L R
Sampling rate : 48.0 KHz
Bit depth : 16 bits
Compression mode : Lossy
Stream size : 25.1 MiB (3%)
Menu
dvd1
You don't have permission to view content!

dvd2
You don't have permission to view content!

dvd3
You don't have permission to view content!

Attachments

Last edited:
Top